<?xml version="1.0" standalone="no"?>
<!DOCTYPE svg PUBLIC "-//W3C//DTD SVG 1.1//EN" "http://www.w3.org/Graphics/SVG/1.1/DTD/svg11.dtd" >
<svg xmlns="http://www.w3.org/2000/svg">
<metadata>Generated by IcoMoon</metadata>
<defs>
<font id="icomoon" horiz-adv-x="1024">
<font-face units-per-em="1024" ascent="960" descent="-64" />
<missing-glyph horiz-adv-x="1024" />
<glyph unicode="&#x20;" horiz-adv-x="512" d="" />
<glyph unicode="&#xe900;" glyph-name="cabin" d="M171.169 753.981l-97.667-272.53c-5.225-5.571-8.436-12.658-9.112-20.395-0.804-9.211 2.061-18.164 8.055-25.192l39.17-45.945v-290.348h-3.581c-20.096 0-36.452-16.356-36.452-36.452v-58.227c0-20.096 16.356-36.452 36.452-36.452h803.893c20.108 0 36.458 16.356 36.458 36.452v58.227c0 20.096-16.35 36.452-36.458 36.452h-3.575v290.348s39.158 45.928 39.17 45.945c11.155 13.086 10.703 33.053-1.063 45.593l-97.661 272.524c-7.843 21.892-28.738 36.599-51.992 36.599h-168.634l49.638 43.62c13.973 12.282 15.528 33.793 3.458 47.947 0 0-29.231 34.297-29.254 34.315-11.976 14.055-33.675 15.939-47.894 4.174l-94.139-77.841-94.133 77.841c-14.331 11.859-35.818 9.986-47.888-4.174l-29.254-34.315c-12.070-14.155-10.521-35.665 3.458-47.947l49.632-43.62h-168.628c-23.254 0-44.155-14.706-51.998-36.599zM92.412 458.613c0.082 0.957 0.476 2.765 2.196 4.186l121.256 100.268c5.982 4.955 6.828 13.826 1.873 19.808-4.949 5.982-13.814 6.828-19.802 1.873l-81.763-67.614 81.475 227.36c3.851 10.744 14.108 17.965 25.521 17.965h189.663s-174.546-144.346-174.657-144.434c-6.305-5.213-6.722-15.135-0.91-20.859 5.020-4.943 13.409-5.295 18.834-0.822l183.792 151.996 48.787-42.869s-343.491-301.802-343.579-301.884c-2.448-2.149-6.499-1.973-8.706 0.622l-42.54 49.896c-1.444 1.703-1.526 3.558-1.438 4.509zM747.144 99.571h-89.97v236.583c0 0.070-0.006 0.141-0.006 0.211v123.211h89.976zM569.704 99.571h-119.436v197.689h119.436zM583.765 325.387h-147.563c-7.761 0-14.061-6.299-14.061-14.067v-211.749h-31.215v236.688c0.059 11.172 8.618 20.389 19.503 21.499 0.728 0.070 196.896 0.112 196.896 0.112 11.918 0 21.646-9.675 21.716-21.587v-236.712h-31.215v211.749c0 7.767-6.299 14.067-14.061 14.067zM736.518 487.703h-453.070l226.538 199.039zM412.642 385.997c-7.339 0-14.982-1.72-21.716-4.984v78.563h104.994v-73.579zM524.053 459.576h104.988v-78.563c-1.614 0.781-3.288 1.479-4.99 2.096-5.348 1.908-11.037 2.888-16.726 2.888h-83.272zM272.822 459.576h89.976v-123.064c0-0.117-0.006-0.247-0.006-0.358v-236.583h-89.97zM139.742 373.95c0.082-0.511 8.583 0.857 9.387 1.022 5.419 1.104 10.386 3.845 14.53 7.485 0.012 0.006 81.035 71.196 81.035 71.196v-354.082h-104.953s0 274.279 0 274.379zM911.927 71.444c4.591 0 8.331-3.734 8.331-8.325v-58.227c0-4.591-3.74-8.331-8.331-8.331h-803.893c-4.585 0-8.319 3.746-8.319 8.331v58.227c0 4.591 3.734 8.325 8.319 8.325zM775.272 99.571v354.082s81.035-71.196 81.035-71.207c6.499-5.695 15.276-8.83 23.924-8.489v-274.385zM622.043 898.967c2.554 2.108 6.423 1.767 8.566-0.746l29.248-34.315c2.16-2.536 1.885-6.382-0.616-8.577l-79.714-70.045-47.477 39.258s89.994 74.425 89.994 74.425zM360.104 863.9l29.254 34.321c2.16 2.524 6.006 2.859 8.571 0.746 0 0 233.166-192.827 233.371-192.992 5.888-4.867 14.947-3.986 19.802 1.873 4.943 5.994 4.11 14.853-1.873 19.802l-42.094 34.808h189.669c11.413 0 21.663-7.221 25.515-17.965l81.475-227.36s-211.309 174.745-211.45 174.863c-5.865 4.849-14.953 3.986-19.802-1.873-4.955-5.982-4.11-14.853 1.873-19.808 0 0 250.943-207.516 250.949-207.516 2.601-2.149 2.941-6.129 0.757-8.695l-42.54-49.896c-2.16-2.519-6.217-2.818-8.706-0.628 0 0-514.15 451.743-514.15 451.743-2.495 2.202-2.771 6.047-0.622 8.577z" />
<glyph unicode="&#xe901;" glyph-name="worldwide" d="M512.181 959.893c-204.864 0.030-390.016-122.084-470.65-310.412l-6.382-2.116 2.474-7.422c-106.167-261.846 20.034-560.18 281.88-666.347 61.156-24.797 126.532-37.526 192.525-37.49 282.71-0.043 511.927 229.106 511.97 511.817s-229.106 511.93-511.819 511.97zM913.704 189.912l-26.286 26.269v61.188c0.030 2.641-0.555 5.251-1.706 7.627l-66.546 132.905v64.226c0 5.703-2.847 11.031-7.593 14.197l-51.189 34.126c-4.012 2.679-8.971 3.534-13.65 2.355l-62.69-15.664-105.296 45.183-14.487 101.491 40.15 40.132h86.186l29.007-43.596c2.619-3.92 6.746-6.584 11.398-7.354l102.379-17.063c2.743-0.461 5.554-0.237 8.19 0.648l94.291 31.43c79.085-151.766 70.626-334.3-22.156-478.1zM843.327 791.753l-27.745-18.496-77.347 15.476-50.183 16.705c-3.071 1.043-6.377 1.175-9.521 0.375l-63.441-15.852-27.813 9.265 20.612 41.224h57.707c2.647-0.002 5.258 0.61 7.627 1.792l59.038 29.519c40.657-21.222 78.059-48.165 111.064-80.009zM325.138 887.665l40.951-27.301c2.013-1.339 4.287-2.235 6.672-2.628l82.688-13.787-8.071-24.144-43.084-14.384c-3.858-1.284-7.132-3.903-9.231-7.388l-49.005-81.664-78.712-47.231-116.029-16.568c-8.41-1.188-14.664-8.382-14.674-16.875v-51.189c0-4.526 1.8-8.864 4.999-12.064l29.127-29.127v-29.314l-70.983 47.333-25.748 77.245c48.988 111.934 138.776 201.003 251.101 249.087zM276.559 328.217l-77.125 15.442-28.666 57.178v40.098l63.577 63.577 23.53-47.077c2.89-5.784 8.805-9.438 15.271-9.436h109.784l46.224-77.040c3.084-5.134 8.634-8.273 14.623-8.276h47.435l-11.944-59.84-64.601-64.601c-3.206-3.197-5.010-7.535-5.017-12.064v-42.658l-61.427-46.070c-4.296-3.223-6.825-8.28-6.825-13.65v-61.632l-21.227 7.030-29.963 74.941v167.355c0.002 8.109-5.705 15.101-13.65 16.722zM225.267 65.912c-160.882 120.698-228.919 329.243-170.17 521.596l14.179-42.521c1.194-3.598 3.553-6.697 6.706-8.805l85.060-56.701-19.401-19.418c-3.199-3.199-4.999-7.538-4.999-12.064v-51.189c-0.002-2.647 0.61-5.258 1.792-7.627l34.126-68.252c2.363-4.714 6.772-8.071 11.944-9.095l71.665-14.316v-156.656c-0.002-2.167 0.41-4.317 1.211-6.33l34.126-85.316c1.868-4.66 5.695-8.263 10.46-9.845l51.189-17.063c1.711-0.58 3.502-0.879 5.307-0.887 9.423 0 17.063 7.64 17.063 17.063v76.784l61.427 46.070c4.296 3.223 6.825 8.28 6.825 13.65v44.125l63.253 63.253c2.378 2.382 3.999 5.418 4.658 8.719l17.063 85.316c1.847 9.242-4.146 18.23-13.388 20.077-1.098 0.22-2.214 0.331-3.334 0.331h-58.595l-46.224 77.040c-3.084 5.134-8.634 8.273-14.623 8.276h-108.897l-29.314 58.817c-2.455 4.91-7.122 8.34-12.541 9.214-5.418 0.936-10.948-0.851-14.794-4.778l-22.148-22.063v27.062c0 4.526-1.8 8.864-4.999 12.064l-29.127 29.127v29.331l104.802 14.964c2.25 0.326 4.415 1.098 6.365 2.269l85.316 51.189c2.393 1.438 4.398 3.442 5.836 5.836l47.947 79.907 45.2 15.084c5.104 1.674 9.11 5.678 10.784 10.784l17.063 51.189c2.956 8.947-1.9 18.599-10.848 21.555-0.825 0.273-1.672 0.482-2.53 0.627l-98.761 16.466-17.353 11.569c107.376 34.95 223.674 30.624 328.158-12.2l-31.174-15.562h-64.226c-6.499 0.036-12.452-3.624-15.357-9.436l-34.126-68.252c-4.204-8.433-0.776-18.68 7.657-22.884 0.719-0.358 1.461-0.665 2.222-0.919l51.189-17.063c3.071-1.043 6.377-1.175 9.521-0.375l63.441 15.852 46.48-15.476c0.665-0.239 1.35-0.422 2.048-0.546l85.316-17.063c4.436-0.904 9.052 0.004 12.814 2.525l38.836 25.902c19.113-21.288 36.289-44.238 51.326-68.577l-83.951-27.984-90.895 15.152-30.031 45.047c-3.148 4.72-8.438 7.565-14.111 7.593h-102.379c-4.526 0-8.864-1.8-12.064-4.999l-51.189-51.189c-3.801-3.799-5.59-9.167-4.829-14.487l17.063-119.442c0.86-5.906 4.741-10.933 10.238-13.258l119.442-51.189c3.421-1.482 7.239-1.787 10.852-0.87l60.932 15.237 37.249-24.878v-59.124c-0.030-2.641 0.555-5.251 1.706-7.627l66.546-132.905v-64.226c0-4.526 1.8-8.864 4.999-12.064l35.696-35.713c-158.309-211.013-457.707-253.739-668.72-95.428z" />
<glyph unicode="&#xe902;" glyph-name="map" d="M991.97 512.028c-17.663 0-31.998-14.335-31.998-31.998v-362.345l-255.984-102.394v336.747c0 17.663-14.335 31.998-31.998 31.998s-31.998-14.335-31.998-31.998v-336.683l-255.984 102.394v506.976l148.279-59.324c16.191-6.528 35.006 1.408 41.597 17.855 6.592 16.383-1.408 35.006-17.855 41.597l-191.54 76.667c0 0 0 0-0.064 0l-0.512 0.192c-7.616 3.072-16.127 3.072-23.743 0l-0.576-0.192c0 0 0 0-0.064 0l-319.404-127.8c-12.095-4.864-20.095-16.575-20.095-29.694v-575.964c0-10.623 5.312-20.543 14.079-26.494 5.376-3.648 11.583-5.504 17.919-5.504 4.032 0 8.063 0.768 11.903 2.304l308.077 123.192 307.501-123c0 0 0 0 0.064 0l0.576-0.256c7.616-3.072 16.127-3.072 23.743 0l0.576 0.256c0 0 0 0 0.064 0l319.404 127.736c12.031 4.928 20.031 16.639 20.031 29.758v383.976c0 17.663-14.335 31.998-31.998 31.998zM320.012 117.749l-255.984-102.394v507.040l255.984 102.394v-507.040zM799.982 832.008c-52.925 0-95.994-43.069-95.994-95.994s43.069-95.994 95.994-95.994 95.994 43.069 95.994 95.994-43.069 95.994-95.994 95.994zM799.982 704.016c-17.663 0-31.998 14.335-31.998 31.998s14.335 31.998 31.998 31.998c17.663 0 31.998-14.335 31.998-31.998s-14.335-31.998-31.998-31.998zM799.982 960c-123.512 0-223.986-100.474-223.986-223.986 0-114.937 179.701-318.508 200.179-341.355 6.080-6.72 14.719-10.623 23.807-10.623s17.727 3.904 23.807 10.623c20.479 22.847 200.179 226.418 200.179 341.355 0 123.512-100.474 223.986-223.986 223.986zM799.982 464.863c-69.884 82.875-159.99 210.099-159.99 271.151 0 88.186 71.804 159.99 159.99 159.99s159.99-71.804 159.99-159.99c0-60.988-90.106-188.276-159.99-271.151z" />
<glyph unicode="&#xe903;" glyph-name="play" d="M946.704 492.667l-819.231 460.817c-15.77 8.807-35.329 8.704-50.895-0.41-15.668-9.216-25.396-26.011-25.396-44.238v-921.635c0-18.228 9.728-35.022 25.396-44.238 7.885-4.608 16.897-6.963 25.806-6.963 8.704 0 17.306 2.15 25.089 6.554l819.231 460.817c16.077 9.114 26.113 26.113 26.113 44.648s-10.036 35.534-26.113 44.648zM153.587 74.757v746.524l663.577-373.262-663.577-373.262z" />
<glyph unicode="&#xe904;" glyph-name="phone-call" d="M424.024 360.024c-97.739 97.739-119.808 195.478-124.787 234.637-1.391 10.828 2.335 21.686 10.081 29.378l79.095 79.060c11.635 11.628 13.7 29.749 4.979 43.697l-125.934 195.549c-9.648 15.444-29.459 21.018-45.745 12.871l-202.169-95.214c-13.17-6.485-20.916-20.477-19.421-35.081 10.593-100.634 54.466-348.019 297.578-591.148s490.461-286.985 591.148-297.578c14.603-1.495 28.596 6.251 35.081 19.421l95.214 202.169c8.117 16.251 2.58 36.008-12.8 45.674l-195.549 125.899c-13.939 8.73-32.060 6.68-43.697-4.943l-79.060-79.095c-7.692-7.746-18.551-11.472-29.378-10.081-39.159 4.979-136.898 27.048-234.637 124.787zM812.138 412.69c-19.501 0-35.31 15.809-35.31 35.31-0.165 146.192-118.636 264.662-264.828 264.828-19.501 0-35.31 15.809-35.31 35.31s15.809 35.31 35.31 35.31c185.178-0.204 335.244-150.27 335.448-335.448 0-19.501-15.809-35.31-35.31-35.31zM988.69 412.69c-19.501 0-35.31 15.809-35.31 35.31-0.272 243.654-197.725 441.107-441.379 441.379-19.501 0-35.31 15.809-35.31 35.31s15.809 35.31 35.31 35.31c282.641-0.311 511.689-229.359 512-512 0-9.365-3.72-18.346-10.342-24.968s-15.603-10.342-24.968-10.342z" />
<glyph unicode="&#xe905;" glyph-name="envelope" d="M927.999 832.001h-831.999c-52.938 0-96.001-43.063-96.001-96.001v-576c0-52.938 43.063-96.001 96.001-96.001h831.999c52.938 0 96.001 43.063 96.001 96.001v576c0 52.938-43.063 96.001-96.001 96.001zM927.999 768.001c4.348 0 8.484-0.902 12.265-2.477l-428.264-371.18-428.267 371.18c3.781 1.573 7.917 2.477 12.265 2.477zM927.999 128.001h-831.999c-17.656 0-32.001 14.343-32.001 32.001v537.905l427.031-370.094c6.032-5.218 13.501-7.813 20.969-7.813s14.937 2.593 20.969 7.813l427.031 370.094v-537.907c-0.002-17.656-14.345-31.999-32.001-31.999z" />
<glyph unicode="&#xe906;" glyph-name="play-button" d="M955.212 703.89c-68.35 118.384-178.71 203.070-310.754 238.45-132.042 35.384-269.958 17.226-388.348-51.128-118.388-68.352-203.070-178.712-238.45-310.756-35.38-132.042-17.222-269.962 51.128-388.346 68.348-118.384 178.712-203.070 310.754-238.45 44.092-11.816 88.834-17.66 133.292-17.66 88.678 0 176.202 23.258 255.058 68.786 118.384 68.35 203.070 178.71 238.45 310.754 35.382 132.046 17.22 269.962-51.13 388.35zM954.858 329.334c-31.696-118.292-107.56-217.162-213.62-278.394-106.056-61.234-229.612-77.498-347.904-45.806-118.294 31.696-217.162 107.56-278.396 213.62-61.232 106.056-77.498 229.614-45.8 347.908 31.698 118.292 107.562 217.158 213.62 278.394 70.65 40.79 149.048 61.624 228.498 61.624 39.82 0 79.918-5.236 119.404-15.818 118.292-31.696 217.162-107.56 278.394-213.62 61.234-106.058 77.502-229.614 45.804-347.908zM757.556 496.296l-329.052 189.98c-17.462 10.082-38.31 10.078-55.772 0.002-17.462-10.080-27.888-28.138-27.888-48.3v-379.96c0-20.162 10.424-38.218 27.888-48.3 8.73-5.042 18.304-7.56 27.882-7.56 9.58 0 19.158 2.524 27.888 7.562l329.056 189.978c17.46 10.084 27.882 28.14 27.882 48.302 0 20.16-10.424 38.216-27.884 48.296zM730.904 445.852l-329.054-189.978c-0.402-0.234-1.24-0.716-2.472 0-1.236 0.714-1.236 1.678-1.236 2.142v379.96c0 0.464 0 1.428 1.236 2.142 0.484 0.28 0.906 0.376 1.266 0.376 0.56 0 0.964-0.234 1.21-0.376l329.052-189.98c0.402-0.232 1.236-0.714 1.236-2.142s-0.838-1.912-1.238-2.144zM826.606 691.12c-63.378 81.876-158.652 136.884-261.396 150.922-14.566 1.994-28.018-8.212-30.012-22.798-1.99-14.582 8.216-28.018 22.798-30.012 89.024-12.162 171.566-59.818 226.464-130.738 5.252-6.784 13.13-10.336 21.092-10.336 5.698 0 11.44 1.818 16.292 5.578 11.638 9.008 13.77 25.746 4.762 37.384z" />
<glyph unicode="&#xe907;" glyph-name="website" d="M955.716 942.934h-887.432c-37.65 0-68.284-30.636-68.284-68.284v-563.182c0-9.42 7.646-17.066 17.066-17.066h989.866c9.42 0 17.066 7.646 17.066 17.066v563.182c0.002 37.648-30.632 68.284-68.282 68.284zM989.866 328.534h-955.732v546.116c0 18.842 15.326 34.15 34.15 34.15h887.432c18.824 0 34.15-15.308 34.15-34.15v-546.116zM1006.934 328.534h-989.868c-9.42 0-17.066-7.646-17.066-17.066v-85.316c0-37.65 30.634-68.284 68.284-68.284h887.432c37.65 0 68.284 30.634 68.284 68.284v85.316c0 9.42-7.646 17.066-17.066 17.066zM989.866 226.15c0-18.842-15.326-34.15-34.15-34.15h-887.432c-18.824 0-34.15 15.308-34.15 34.15v68.25h955.734v-68.25zM563.2 260.266h-102.4c-9.42 0-17.066-7.646-17.066-17.066s7.646-17.066 17.066-17.066h102.4c9.42 0 17.066 7.646 17.066 17.066s-7.646 17.066-17.066 17.066zM938.666 874.666h-853.332c-9.42 0-17.066-7.646-17.066-17.066v-546.134c0-9.42 7.646-17.066 17.066-17.066h853.334c9.42 0 17.066 7.646 17.066 17.066v546.134c0 9.42-7.646 17.066-17.068 17.066zM921.6 328.534h-819.2v512h819.2v-512zM733.866 55.466h-443.732c-28.228 0-51.2-22.972-51.2-51.2s22.972-51.2 51.2-51.2h443.734c28.228 0 51.2 22.972 51.2 51.2s-22.974 51.2-51.202 51.2zM733.866-12.8h-443.732c-9.42 0-17.066 7.662-17.066 17.066s7.646 17.066 17.066 17.066h443.734c9.42 0 17.066-7.662 17.066-17.066s-7.646-17.066-17.068-17.066zM699.734 55.466c-56.628 0-85.334 40.192-85.334 119.466 0 9.42-7.646 17.066-17.066 17.066h-170.666c-9.42 0-17.066-7.646-17.066-17.066 0-79.274-28.706-119.466-85.334-119.466-9.42 0-17.066-7.646-17.066-17.066s7.646-17.066 17.066-17.066h375.466c9.42 0 17.066 7.646 17.066 17.066s-7.646 17.066-17.066 17.066zM407.398 55.466c21.010 23.278 33.382 57.942 35.874 102.4h137.472c2.474-44.458 14.848-79.122 35.874-102.4h-209.22zM815.514 440.082l-41.198 41.198 22.92 22.92c4.25 4.25 5.956 10.428 4.488 16.248s-5.888 10.428-11.64 12.168l-170.666 51.2c-6.024 1.81-12.526 0.154-16.964-4.284-4.454-4.438-6.092-10.956-4.284-16.964l51.2-170.666c1.724-5.768 6.348-10.188 12.168-11.656 5.802-1.434 11.998 0.24 16.248 4.488l24.132 24.15 41.198-41.216c3.192-3.208 7.544-5 12.066-5s8.874 1.792 12.066 5l48.264 48.282c6.674 6.672 6.674 17.458 0.002 24.132zM755.182 403.866l-37.512 37.53c-4.352 4.352-10.052 6.52-15.752 6.52-5.718 0-11.418-2.184-15.752-6.502l-12.322-12.322-33.878 112.93 112.93-33.878-13.21-13.21c-3.636-3.652-5.632-8.5-5.632-13.654 0-5.172 2.014-10.052 5.666-13.67l39.594-39.594-24.132-24.15zM716.8 806.4h-477.866c-9.42 0-17.066-7.646-17.066-17.066v-85.334c0-9.42 7.646-17.066 17.066-17.066h477.866c9.42 0 17.066 7.646 17.066 17.066v85.334c0 9.42-7.646 17.066-17.066 17.066zM699.734 721.066h-443.734v51.2h443.734v-51.2zM443.734 618.666h-136.534c-9.42 0-17.066-7.646-17.066-17.066v-68.266c0-9.42 7.646-17.066 17.066-17.066h136.534c9.42 0 17.066 7.646 17.066 17.066v68.266c0 9.42-7.646 17.066-17.066 17.066zM426.666 550.4h-102.4v34.134h102.4v-34.134zM716.8 806.4h-477.866c-9.42 0-17.066-7.646-17.066-17.066v-324.266c0-9.42 7.646-17.066 17.066-17.066h406.29c5.41 0 10.478 2.542 13.688 6.878 3.226 4.334 4.216 9.932 2.662 15.104l-21.606 72.038 71.936-21.59c5.172-1.554 10.77-0.564 15.086 2.662 4.334 3.208 6.878 8.294 6.878 13.688v252.552c-0.002 9.42-7.648 17.066-17.068 17.066zM699.734 559.718l-80.334 24.098c-6.024 1.81-12.526 0.154-16.964-4.284-4.454-4.454-6.092-10.956-4.284-16.982l24.132-80.418h-366.284v290.134h443.734v-212.548z" />
<glyph unicode="&#xe908;" glyph-name="startup" d="M537.323 473.299c-7.82 7.82-20.48 7.82-28.3 0-7.8-7.8-7.8-20.46 0-28.28 7.82-7.8 20.48-7.8 28.3 0 7.8 7.82 7.8 20.48 0 28.28zM791.864 727.86c-39.080 39.078-102.344 39.080-141.426 0-38.978-38.978-38.98-102.418 0.006-141.428 38.992-38.968 102.432-38.984 141.42 0.004 39.076 39.076 39.084 102.342 0 141.424zM763.581 614.723c-23.386-23.388-61.454-23.388-84.852-0.004-23.39 23.404-23.392 61.472-0.004 84.858 23.446 23.446 61.406 23.45 84.856 0 23.446-23.444 23.45-61.406 0-84.854zM1018.138 954.142c-3.928 3.926-9.288 6.054-14.86 5.844-4.522-0.162-112.192-4.49-240.182-49.728-102.56-36.212-188.046-88.058-254.084-154.098-14.798-14.798-29.198-30.49-42.976-46.792-65.296 38.436-117.62 26.384-150.698 8.682-76.162-40.76-123.304-151.432-123.304-230.592 0.006-8.088 4.88-15.382 12.352-18.476 2.474-1.026 5.074-1.524 7.65-1.524 5.206 0 10.32 2.034 14.146 5.858 40.166 40.166 89.708 37.654 105.892 35.526l7.004-7.004c-13.784-32.8-24.888-65.416-33.032-97.138-2.94-11.48-1.948-23.628 2.422-34.74-19.256-8.874-37.834-21.904-54.010-38.080-51.482-51.484-61.936-176.952-62.356-182.268-0.46-5.834 1.656-11.578 5.794-15.716 3.766-3.764 8.86-5.858 14.14-5.858 0.524 0 1.050 0.020 1.576 0.062 5.316 0.418 130.788 10.872 182.27 62.354 16.17 16.17 29.198 34.746 38.072 53.998 11.764-4.626 23.872-5.196 34.76-2.406 31.708 8.142 64.32 19.242 97.124 33.028l7.004-7.004c2.126-16.186 4.638-65.728-35.526-105.89-5.718-5.72-7.43-14.322-4.334-21.794 3.094-7.474 10.386-12.346 18.476-12.346 79.16 0 189.83 47.142 230.59 123.304 17.702 33.074 29.754 85.398-8.682 150.696 16.294 13.772 31.988 28.172 46.792 42.976 66.040 66.040 117.884 151.526 154.096 254.078 45.24 127.996 49.566 235.668 49.728 240.188 0.2 5.55-1.918 10.932-5.844 14.86zM236.752 530.477c12.424 60.126 48.51 126.104 97.47 152.308 32.718 17.508 68.48 15.792 106.504-5.022-32.394-42.604-60.556-88.504-84.030-136.974-0.298 0.184-3.898 4.71-10.586 6.218-2.75 0.622-55.668 12.004-109.358-16.53zM367.599 218.741c-27.5-27.5-92.010-42.004-132.784-47.926 5.924 40.776 20.43 105.284 47.928 132.782 15.4 15.4 33.256 27.076 51.204 33.652l67.304-67.304c-6.576-17.948-18.25-35.804-33.652-51.204zM458.779 280.795c-5.788-1.482-12.492 0.694-17.476 5.67-25.874 25.874-35.996 35.996-39.172 39.17-5.824 5.824-20.106 20.106-51.652 51.654-4.988 4.998-7.164 11.7-5.686 17.478 6.406 24.948 14.784 50.544 24.972 76.386l165.39-165.39c-25.846-10.19-51.438-18.566-76.376-24.968zM746.787 270.219c-26.204-48.958-92.18-85.046-152.304-97.468 19.17 36.074 23.396 81.996 16.392 109.842-1.626 6.468-5.846 9.72-6.082 10.102 48.466 23.474 94.364 51.636 136.972 84.030 20.814-38.028 22.528-73.794 5.022-106.506zM791.878 473.301c-18.022-18.020-37.428-35.43-57.68-51.744-48.684-39.2-102.268-72.404-159.436-98.836l-188.040 188.036c26.432 57.172 59.636 110.756 98.832 159.434 16.328 20.266 33.736 39.674 51.75 57.686 59.25 59.252 135.718 106.408 227.342 140.352l167.584-167.584c-33.94-91.622-81.096-168.090-140.352-227.344zM946.62 742.826l-139.792 139.792c76.162 23.656 142.42 32.514 175.492 35.698-3.186-33.078-12.046-99.336-35.7-175.49zM480.741 133.904c-7.814 7.81-20.478 7.806-28.286-0.004l-56.56-56.58c-7.808-7.812-7.806-20.476 0.004-28.284 7.814-7.808 20.478-7.808 28.286 0.004l56.56 56.58c7.808 7.812 7.806 20.476-0.004 28.284zM197.908 416.739c-7.808 7.812-20.47 7.812-28.284 0.004l-56.58-56.56c-7.812-7.808-7.814-20.472-0.006-28.284 7.806-7.808 20.468-7.816 28.284-0.004l56.58 56.56c7.812 7.808 7.814 20.472 0.006 28.284zM339.325 105.602c-7.806 7.81-20.472 7.81-28.284 0.002l-135.48-135.46c-7.812-7.81-7.812-20.474-0.002-28.284 7.806-7.81 20.472-7.814 28.284-0.002l135.48 135.46c7.812 7.81 7.812 20.474 0.002 28.284zM179.326 105.602c-7.808 7.81-20.474 7.81-28.284 0.002l-135.48-135.46c-7.812-7.81-7.812-20.474-0.002-28.284 7.806-7.81 20.472-7.814 28.284-0.002l135.48 135.46c7.812 7.81 7.812 20.474 0.002 28.284zM169.604 275.325c-7.808 7.808-20.474 7.808-28.284-0.002l-135.46-135.48c-7.81-7.812-7.81-20.474 0.002-28.286 7.81-7.81 20.474-7.81 28.284 0.002l135.46 135.48c7.81 7.812 7.81 20.474-0.002 28.286zM622.165 558.163c-7.812 7.81-20.472 7.81-28.286 0l-28.28-28.28c-7.81-7.81-7.81-20.474 0-28.286 7.812-7.81 20.474-7.81 28.286 0l28.28 28.28c7.81 7.81 7.81 20.474 0 28.286z" />
<glyph unicode="&#xe909;" glyph-name="analytics" d="M1002.666-21.334h-981.332c-11.776 0-21.334-9.556-21.334-21.332s9.558-21.334 21.334-21.334h981.334c11.776 0 21.334 9.558 21.334 21.334-0.002 11.776-9.56 21.332-21.336 21.332zM192 234.666h-128c-11.776 0-21.334-9.558-21.334-21.334v-256c0-11.774 9.558-21.332 21.334-21.332h128c11.776 0 21.334 9.558 21.334 21.334v256c0 11.776-9.558 21.332-21.334 21.332zM170.666-21.334h-85.332v213.334h85.334v-213.334zM448 448h-128c-11.776 0-21.334-9.558-21.334-21.334v-469.334c0-11.776 9.558-21.334 21.334-21.334h128c11.776 0 21.334 9.558 21.334 21.334v469.334c0 11.776-9.558 21.334-21.334 21.334zM426.666-21.334h-85.334v426.668h85.334v-426.668zM704 362.666h-128c-11.776 0-21.334-9.558-21.334-21.334v-384c0-11.776 9.558-21.334 21.334-21.334h128c11.776 0 21.334 9.558 21.334 21.334v384c0 11.778-9.558 21.334-21.334 21.334zM682.666-21.334h-85.334v341.334h85.334v-341.334zM960 618.666h-128c-11.776 0-21.334-9.558-21.334-21.334v-640c0-11.776 9.558-21.334 21.334-21.334h128c11.776 0 21.334 9.558 21.334 21.334v640c0 11.778-9.558 21.334-21.334 21.334zM938.666-21.334h-85.334v597.334h85.334v-597.334zM128 576c-47.062 0-85.334-38.272-85.334-85.334s38.272-85.334 85.334-85.334c47.062 0 85.334 38.272 85.334 85.334s-38.272 85.334-85.334 85.334zM128 448c-23.552 0-42.666 19.158-42.666 42.666 0 23.51 19.114 42.666 42.666 42.666s42.666-19.158 42.666-42.666c0-23.508-19.114-42.666-42.666-42.666zM384 789.334c-47.062 0-85.334-38.272-85.334-85.334s38.272-85.334 85.334-85.334 85.334 38.272 85.334 85.334c0 47.062-38.272 85.334-85.334 85.334zM384 661.334c-23.552 0-42.666 19.158-42.666 42.666 0 23.51 19.114 42.666 42.666 42.666s42.666-19.158 42.666-42.666c0-23.51-19.114-42.666-42.666-42.666zM640 704c-47.062 0-85.334-38.272-85.334-85.334s38.272-85.334 85.334-85.334c47.062 0 85.334 38.272 85.334 85.334s-38.272 85.334-85.334 85.334zM640 576c-23.552 0-42.666 19.158-42.666 42.666 0 23.51 19.114 42.666 42.666 42.666s42.666-19.158 42.666-42.666c0-23.508-19.114-42.666-42.666-42.666zM896 960c-47.062 0-85.334-38.272-85.334-85.334s38.272-85.334 85.334-85.334c47.062 0 85.334 38.272 85.334 85.334s-38.272 85.334-85.334 85.334zM896 832c-23.552 0-42.666 19.158-42.666 42.666 0 23.51 19.114 42.666 42.666 42.666s42.666-19.158 42.666-42.666c0-23.508-19.114-42.666-42.666-42.666zM865.878 844.544c-8.32 8.32-21.846 8.32-30.166 0l-165.546-165.546c-8.32-8.32-8.32-21.846 0-30.166 4.182-4.138 9.642-6.23 15.104-6.23 5.418 0 10.88 2.048 15.062 6.23l165.546 165.546c8.32 8.32 8.32 21.846 0 30.166zM588.416 667.904l-137.046 39.082c-11.478 3.328-23.126-3.328-26.326-14.678-3.242-11.35 3.328-23.126 14.634-26.368l137.046-39.082c1.962-0.554 3.926-0.81 5.846-0.81 9.302 0 17.834 6.102 20.522 15.488 3.244 11.306-3.326 23.126-14.676 26.368zM350.72 677.418c-7.338 9.216-20.736 10.71-29.952 3.414l-160.854-128.256c-9.216-7.382-10.752-20.778-3.37-29.994 4.224-5.29 10.454-8.022 16.682-8.022 4.65 0 9.344 1.536 13.27 4.608l160.854 128.256c9.216 7.382 10.752 20.778 3.37 29.994z" />
<glyph unicode="&#xe90a;" glyph-name="target" d="M933.448 744.144c-1.452 4.898-5.384 8.618-10.306 9.742l-0.094 0.018-85.8 19.384-19.384 85.8c-1.455 6.294-7.013 10.915-13.649 10.915-3.868 0-7.37-1.57-9.902-4.107v0l-98.68-98.696c-58.834 36.060-130.063 57.416-206.28 57.416-220.507 0-399.264-178.757-399.264-399.264s178.757-399.264 399.264-399.264c220.507 0 399.264 178.757 399.264 399.264 0 76.217-21.356 147.446-58.41 208.029l0.995-1.749 98.72 98.72c2.523 2.533 4.084 6.027 4.084 9.886 0 1.392-0.203 2.736-0.581 4.005l0.025-0.099zM860.6 425.304c-0.029-205.013-166.231-371.197-371.248-371.197-205.035 0-371.248 166.213-371.248 371.248s166.213 371.248 371.248 371.248c68.436 0 132.547-18.517 187.595-50.815l-1.747 0.948-45.32-45.32c-0.368-0.417-0.723-0.874-1.049-1.352l-0.031-0.048c-40.71 21.166-88.89 33.58-139.971 33.58-170.386 0-308.512-138.126-308.512-308.512s138.126-308.512 308.512-308.512c170.386 0 308.512 138.126 308.512 308.512 0 50.932-12.342 98.982-34.199 141.322l0.81-1.725c0.545 0.387 1.022 0.778 1.472 1.199l-0.008-0.007 45.32 45.32c31.347-53.19 49.864-117.186 49.864-185.508 0-0.134 0-0.267 0-0.401v0.021zM730.728 567.016c24.108-40.481 38.36-89.264 38.36-141.376 0-154.476-125.228-279.704-279.704-279.704s-279.704 125.228-279.704 279.704c0 154.476 125.228 279.704 279.704 279.704 52.207 0 101.073-14.303 142.893-39.204l-1.285 0.708 14.744-65.312-14.144-14.144c-37.866 33.378-87.89 53.751-142.673 53.751-119.417 0-216.224-96.807-216.224-216.224s96.807-216.224 216.224-216.224c119.417 0 216.224 96.807 216.224 216.224 0 54.783-20.373 104.807-53.956 142.909l0.205-0.237 14.144 14.144zM549.504 425.304c0-0.066 0-0.145 0-0.223 0-33.371-27.053-60.424-60.424-60.424s-60.424 27.053-60.424 60.424c0 33.371 27.053 60.424 60.424 60.424 11.718 0 22.657-3.336 31.919-9.109l-0.255 0.148-41.344-41.344c-2.636-2.549-4.272-6.118-4.272-10.068 0-7.732 6.268-14 14-14 3.953 0 7.523 1.638 10.068 4.272l41.348 41.348c5.62-8.936 8.956-19.802 8.96-31.447v-0.001zM540.896 496.696c-14.387 10.524-32.432 16.838-51.951 16.838-48.91 0-88.56-39.65-88.56-88.56s39.65-88.56 88.56-88.56c48.91 0 88.56 39.65 88.56 88.56 0 19.507-6.307 37.54-16.992 52.173l0.175-0.251 70.864 70.864c28.297-32.73 45.536-75.703 45.536-122.703 0-103.878-84.21-188.088-188.088-188.088s-188.088 84.21-188.088 188.088c0 103.878 84.21 188.088 188.088 188.088 47.026 0 90.022-17.258 122.998-45.787l-0.238 0.201zM803.648 643.704l-52.544-52.536-78.304 17.632-17.672 78.264 141.056 141.080 15.736-69.648c1.222-5.276 5.3-9.354 10.481-10.558l0.095-0.018 69.648-15.736z" />
<glyph unicode="&#xe90b;" glyph-name="monitoring" d="M677.161 662.71c-118.387 0-214.71-96.323-214.71-214.71s96.323-214.71 214.71-214.71 214.71 96.323 214.71 214.71-96.323 214.71-214.71 214.71zM677.161 266.323c-100.169 0-181.677 81.508-181.677 181.677s81.508 181.677 181.677 181.677 181.677-81.508 181.677-181.677-81.508-181.677-181.677-181.677zM264.258 18.581c0-9.121-7.395-16.516-16.516-16.516s-16.516 7.395-16.516 16.516 7.395 16.516 16.516 16.516 16.516-7.395 16.516-16.516zM1024 960h-1024v-660.645h439.097l-42.71-42.71-16.516 16.516-189.355-189.355c-16.355-16.355-25.355-38.089-25.355-61.226 0-47.734 38.847-86.581 86.581-86.581 23.121 0 44.871 9 61.226 25.355l189.355 189.355-16.516 16.516 42.895 42.895c43.137-27.024 93.927-42.895 148.46-42.895 100.202 0 188.073 52.935 237.766 132.129h109.073zM990.968 926.968v-99.097h-957.935v99.097zM289.613-15.29c-10.113-10.113-23.573-15.677-37.871-15.677-29.532 0-53.548 24.016-53.548 53.548 0 14.298 5.565 27.758 15.677 37.871l116.452 116.452 75.742-75.742zM429.419 124.516l-75.742 75.742 26.194 26.194 75.742-75.742zM462.452 190.581l-42.71 42.71 38.863 38.863c12.669-15.726 26.984-30.024 42.71-42.71zM677.161 200.258c-136.605 0-247.742 111.137-247.742 247.742s111.137 247.742 247.742 247.742 247.742-111.137 247.742-247.742-111.137-247.742-247.742-247.742zM932.734 332.387c16.032 35.315 25.202 74.371 25.202 115.613 0 154.823-125.952 280.774-280.774 280.774s-280.774-125.952-280.774-280.774c0-41.242 9.169-80.298 25.202-115.613h-388.556v462.452h957.935v-462.452zM66.065 893.935h33.032v-33.032h-33.032zM132.129 893.935h33.032v-33.032h-33.032zM198.194 893.935h33.032v-33.032h-33.032zM561.548 398.452h231.226v-33.032h-231.226zM561.548 464.516h33.032v-33.032h-33.032zM627.613 464.516h33.032v-33.032h-33.032zM693.677 464.516h33.032v-33.032h-33.032zM759.742 464.516h33.032v-33.032h-33.032zM561.548 530.581h231.226v-33.032h-231.226zM363.355 728.774h-33.032v-198.194h-33.032v165.161h-33.032v-165.161h-33.032v132.129h-33.032v-132.129h-33.032v99.097h-33.032v-99.097h-33.032v231.226h-33.032v-264.258h330.323v33.032h-33.032z" />
<glyph unicode="&#xe90c;" glyph-name="lightbulb" d="M512.779 739.286c-144.932 0-263.341-118.409-263.341-263.341 0-75.782 33.154-148.722 89.043-197.98 41.68-41.68 37.891-130.723 36.944-131.671 0-4.736 0.947-8.525 4.736-12.315 2.842-2.842 7.578-4.736 11.367-4.736h241.554c4.736 0 8.525 1.895 11.367 4.736s4.736 7.578 4.736 12.315c0 0.947-4.736 89.991 36.944 131.671 0.947 0.947 1.895 1.895 2.842 2.842 54.942 50.205 87.149 121.251 87.149 195.138 0 144.932-118.409 263.341-263.341 263.341zM664.342 302.594c-0.947-0.947-2.842-2.842-2.842-3.789-36.944-39.785-43.574-105.147-44.522-136.407h-209.347c-0.947 31.26-7.578 99.463-47.364 140.196-50.205 43.574-79.571 107.042-79.571 174.298 0 127.882 103.253 231.134 231.134 231.134s231.134-103.253 231.134-231.134c0-67.256-28.418-130.723-78.623-174.298zM511.832 672.030c-8.525 0-16.104-7.578-16.104-16.104s7.578-16.104 16.104-16.104c95.674 0 172.403-77.676 172.403-172.403 0-8.525 7.578-16.104 16.104-16.104s16.104 7.578 16.104 16.104c0.947 112.725-90.938 204.611-204.611 204.611zM616.979 111.245h-210.294c-21.787 0-39.785-17.998-39.785-39.785s17.998-39.785 39.785-39.785h209.347c22.735 0.947 40.733 17.998 40.733 39.785s-17.998 39.785-39.785 39.785zM616.979 64.829h-210.294c-3.789 0-7.578 2.842-7.578 7.578s2.842 7.578 7.578 7.578h209.347c3.789 0 7.578-2.842 7.578-7.578s-2.842-7.578-6.631-7.578zM585.719 15.571h-147.774c-21.787 0-39.785-17.998-39.785-39.785s17.998-39.785 39.785-39.785h147.774c21.787 0 39.785 17.998 39.785 39.785 0 22.735-17.998 39.785-39.785 39.785zM585.719-30.846h-147.774c-3.789 0-7.578 2.842-7.578 7.578s2.842 7.578 7.578 7.578h147.774c3.789 0 7.578-2.842 7.578-7.578s-3.789-7.578-7.578-7.578zM511.832 817.909c9.473 0 16.104 7.578 16.104 16.104v109.883c0 8.525-7.578 16.104-16.104 16.104s-16.104-7.578-16.104-16.104v-109.883c0-8.525 7.578-16.104 16.104-16.104zM779.91 878.535c-7.578 5.684-17.051 2.842-21.787-3.789l-60.625-90.938c-5.684-7.578-3.789-17.998 3.789-22.735 2.842-1.895 5.684-2.842 8.525-2.842 5.684 0 10.42 2.842 13.262 7.578l60.625 90.938c5.684 6.631 3.789 17.051-3.789 21.787zM319.536 762.020c2.842 0 5.684 0.947 8.525 2.842 7.578 4.736 9.473 15.156 4.736 22.735l-58.731 91.885c-4.736 7.578-15.156 9.473-22.735 4.736s-9.473-15.156-4.736-22.735l58.731-91.885c3.789-5.684 8.525-7.578 14.209-7.578zM204.916 661.61l-95.674 52.1c-7.578 3.789-17.998 0.947-21.787-6.631-4.736-7.578-1.895-17.998 6.631-21.787l95.674-52.1c2.842-0.947 4.736-1.895 7.578-1.895 5.684 0 11.367 2.842 14.209 8.525 3.789 7.578 0.947 17.998-6.631 21.787zM937.157 707.079c-3.789 7.578-14.209 10.42-21.787 6.631l-96.622-52.1c-7.578-3.789-10.42-14.209-6.631-21.787 2.842-5.684 8.525-8.525 14.209-8.525 2.842 0 5.684 0.947 7.578 1.895l96.622 52.1c7.578 3.789 10.42 14.209 6.631 21.787z" />
<glyph unicode="&#xe90d;" glyph-name="award" d="M932.017 70.409l-107.432 138.116c34.812 10.401 64.883 32.664 84.992 62.923 25.3 43.732 13.859 97.103 2.79 148.657-6.694 26.483-10.699 53.575-11.953 80.861 1.249 27.31 5.252 54.426 11.953 80.931 10.999 51.588 22.51 104.925-2.79 148.586-26.2 45.268-78.954 62.023-129.977 78.195-25.399 6.998-49.997 16.631-73.393 28.743-21.23 13.771-40.942 29.749-58.809 47.669-37.853 35.134-80.772 74.911-135.398 74.911s-97.545-39.777-135.415-74.893c-17.86-17.924-37.568-33.909-58.792-47.687-23.393-12.087-47.985-21.696-73.375-28.672-51.023-16.172-103.777-32.927-129.977-78.195-25.3-43.732-13.859-97.103-2.79-148.657 6.694-26.507 10.692-53.621 11.935-80.931-1.249-27.31-5.252-54.426-11.953-80.931-10.999-51.588-22.51-104.925 2.79-148.586 20.136-30.27 50.24-52.526 85.080-62.905l-107.52-138.116c-5.985-7.698-4.597-18.79 3.103-24.775 3.699-2.876 8.386-4.162 13.034-3.58l126.234 15.766 31.161-109.038c1.825-6.391 7.086-11.215 13.612-12.482 1.106-0.21 2.229-0.318 3.354-0.318 5.451-0.004 10.6 2.511 13.948 6.815l112.746 145.020c27.745-27.010 64.19-43.282 102.824-45.903 38.634 2.622 75.079 18.893 102.824 45.903l112.746-144.967c3.337-4.323 8.486-6.859 13.948-6.868 1.126 0 2.249 0.108 3.354 0.318 6.526 1.267 11.787 6.091 13.612 12.482l31.161 109.021 126.234-15.766c9.675-1.214 18.503 5.645 19.716 15.32 0.583 4.648-0.704 9.335-3.58 13.034zM289.898-8.051l-25.759 90.147c-2.394 8.362-10.525 13.734-19.156 12.659l-98.869-12.359 88.611 113.911 9.763-3.125c25.366-6.98 49.933-16.589 73.304-28.672 21.23-13.771 40.942-29.749 58.809-47.669l6.073-5.614-92.778-119.278zM512 77.241c-40.783 0-75.087 31.779-111.422 65.465-19.767 19.75-41.602 37.31-65.13 52.383-25.598 13.4-52.544 24.053-80.384 31.779-46.663 14.813-90.748 28.796-110.098 62.234-18.467 31.938-8.934 76.447 1.183 123.586 7.281 28.908 11.553 58.489 12.747 88.276-1.187 29.786-5.453 59.368-12.729 88.276-10.116 47.122-19.65 91.63-1.183 123.586 19.421 33.439 63.435 47.422 110.098 62.234 27.836 7.729 54.773 18.381 80.366 31.779 23.521 15.073 45.352 32.636 65.112 52.383 36.352 33.686 70.656 65.465 111.439 65.465s75.087-31.779 111.422-65.465c19.767-19.75 41.602-37.31 65.13-52.383 25.598-13.4 52.544-24.053 80.384-31.779 46.663-14.813 90.748-28.796 110.098-62.234 18.467-31.938 8.934-76.447-1.183-123.586-7.281-28.908-11.553-58.489-12.747-88.276 1.187-29.786 5.453-59.368 12.729-88.276 10.116-47.122 19.65-91.63 1.183-123.586-19.421-33.439-63.435-47.422-110.098-62.234-27.836-7.729-54.773-18.381-80.366-31.779-23.521-15.073-45.352-32.636-65.112-52.383-36.352-33.686-70.656-65.465-111.439-65.465zM779.105 94.755c-8.631 1.075-16.761-4.297-19.156-12.659l-25.847-90.147-92.76 119.261 6.073 5.614c17.86 17.924 37.568 33.909 58.792 47.687 23.393 12.087 47.985 21.696 73.375 28.672l9.763 3.125 88.629-113.911-98.869 12.359zM512 818.759c-175.512 0-317.793-142.281-317.793-317.793s142.281-317.793 317.793-317.793 317.793 142.281 317.793 317.793c-0.203 175.428-142.365 317.588-317.793 317.793zM512 218.483c-156.010 0-282.483 126.473-282.483 282.483s126.473 282.483 282.483 282.483 282.483-126.473 282.483-282.483c-0.185-155.935-126.548-282.297-282.483-282.483zM715.705 574.711c-6.643 9.126-17.245 14.526-28.531 14.53h-108.085l-33.545 102.877c-6.089 18.527-26.044 28.608-44.57 22.519-10.657-3.502-19.017-11.862-22.519-22.519l-33.457-102.877h-108.173c-19.502 0.009-35.319-15.79-35.328-35.293-0.007-11.299 5.396-21.917 14.53-28.566l87.499-63.559-33.421-102.877c-6.029-18.547 4.12-38.468 22.665-44.495 10.754-3.496 22.53-1.629 31.678 5.018l87.552 63.541 87.517-63.559c12.328-9.159 29.197-9.159 41.525 0 12.511 8.892 17.719 24.931 12.818 39.477l-33.421 102.894 87.499 63.559c15.768 11.476 19.246 33.562 7.768 49.329zM589.294 482.834c-6.193-4.5-8.781-12.478-6.409-19.756l37.394-115.076-97.898 71.115c-6.186 4.491-14.559 4.491-20.745 0l-97.898-71.115 37.376 115.076c2.364 7.274-0.223 15.241-6.409 19.738l-97.88 71.115h120.991c7.649 0 14.426 4.926 16.79 12.2l37.394 115.076 37.394-115.059c2.364-7.274 9.141-12.2 16.79-12.2l120.991-0.018-97.88-71.097z" />
<glyph unicode="&#xe90e;" glyph-name="startup-1" d="M40.24-40.894c0-11.112-9.008-20.12-20.12-20.12s-20.12 9.008-20.12 20.12c0 11.112 9.008 20.12 20.12 20.12s20.12-9.008 20.12-20.12zM554.091 469.383c0-11.090-8.99-20.080-20.080-20.080s-20.080 8.99-20.080 20.080c0 11.090 8.99 20.080 20.080 20.080s20.080-8.99 20.080-20.080zM796.96 723.936c-16.142 16.144-37.604 25.032-60.432 25.032s-44.292-8.892-60.432-25.032c-33.322-33.324-33.322-87.544 0-120.866 16.664-16.662 38.544-24.99 60.432-24.99 21.882 0 43.772 8.332 60.432 24.99 33.322 33.324 33.322 87.544 0 120.866zM768.566 631.467c-17.666-17.664-46.412-17.664-64.074 0-17.666 17.664-17.666 46.408 0 64.074 8.558 8.558 19.934 13.27 32.036 13.27s23.478-4.712 32.036-13.27c17.666-17.666 17.666-46.41 0.002-64.074zM250.818 137.098c-9.928 4.944-21.98 0.902-26.924-9.024l-23.916-48.030c-10.4-20.882-31.316-34.846-54.592-36.438l-27.816-1.904c-4.702-0.314-7.794 2.028-9.224 3.458s-3.778 4.528-3.458 9.226l1.904 27.814c1.594 23.274 15.558 44.192 36.438 54.592l48.028 23.916c9.928 4.944 13.968 16.998 9.024 26.924-4.942 9.926-16.996 13.968-26.924 9.024l-48.028-23.916c-33.584-16.724-56.040-50.364-58.604-87.796l-1.904-27.814c-1.028-15.014 4.484-29.726 15.124-40.366 9.796-9.796 23.046-15.248 36.806-15.248 1.182 0 2.372 0.040 3.56 0.122l27.816 1.904c37.432 2.562 71.072 25.016 87.796 58.604l23.916 48.028c4.944 9.928 0.904 21.98-9.022 26.924zM1010.142 943.64c-9.422 9.282-22.402 14.136-35.586 13.278l-18.696-1.192c-167.638-10.702-324.525-91.62-430.431-222.008l-44.008-54.178-115.166 3.382c-0.196 0.006-0.394 0.008-0.588 0.008-91.336 0-177.206-35.568-241.792-100.152l-117.956-117.958c-5.61-5.61-7.392-14-4.544-21.404 2.848-7.406 9.788-12.442 17.712-12.846l249.688-12.828-10.18-12.534c-5.13-6.318-5.942-15.106-2.052-22.254 3.912-7.192 8.012-14.27 12.288-21.234l-59.212-70.294c-5.062-6.010-6.152-14.422-2.794-21.526 12.934-27.33 30.1-51.886 51.028-72.986 21.436-21.616 46.502-39.292 74.498-52.542 2.736-1.296 5.67-1.93 8.586-1.93 4.522 0 9.006 1.528 12.654 4.486 12.756 10.348 27.462 22.622 41.686 34.49 10.138 8.46 20.51 17.114 30.204 25.094 5.786-3.482 11.644-6.858 17.59-10.092 3.008-1.636 6.306-2.442 9.592-2.442 4.372 0 8.716 1.424 12.312 4.216l13.686 10.62 12.884-250.74c0.408-7.924 5.442-14.864 12.846-17.712 2.344-0.9 4.78-1.34 7.2-1.34 5.23 0 10.366 2.046 14.202 5.884l117.958 117.958c64.586 64.586 100.152 150.454 100.152 241.792v109.99l46.534 36.11c139.458 108.22 224.392 271.409 233.024 447.725l0.478 9.772c0.652 13.208-4.38 26.104-13.798 35.388zM66.246 468.355l86.024 86.024c56.93 56.93 132.606 88.314 213.106 88.392l84.17-2.472-149.42-183.96-233.88 12.016zM369.549 212.251c-10.482-8.744-21.228-17.712-31.2-25.914-19.288 10.446-36.736 23.48-51.984 38.856-14.768 14.89-27.338 31.844-37.474 50.52l43.352 51.466c13.108-17.586 27.456-34.244 42.956-49.85 0.012-0.012 0.024-0.022 0.036-0.034 0.004-0.004 0.008-0.010 0.012-0.014 0.006-0.006 0.012-0.010 0.018-0.016 17.186-17.296 35.672-33.168 55.282-47.522-6.924-5.748-14.018-11.668-20.998-17.492zM703.751 304.655c0-80.61-31.39-156.394-88.392-213.396l-86.024-86.024-12.004 233.584 186.418 144.66v-78.824zM983.358 900.442c-8.058-164.594-87.346-316.935-217.534-417.961l-314.921-244.378c-26.116 15.26-50.458 33.278-72.736 53.692l106.172 106.172c7.84 7.84 7.84 20.556 0 28.398-7.842 7.842-20.556 7.842-28.398 0l-106.072-106.072c-19.502 21.59-36.774 45.082-51.48 70.208l258.213 317.899c98.864 121.718 245.32 197.258 401.815 207.246l18.696 1.192c2.45 0.152 4.090-1.064 4.846-1.808 0.754-0.742 2-2.356 1.88-4.818l-0.48-9.77z" />
<glyph unicode="&#xe90f;" glyph-name="customer" d="M686 720.738c0-96.098-77.902-174-174-174s-174 77.902-174 174c0 96.098 77.902 174 174 174s174-77.902 174-174zM974 656.74c0-60.751-49.249-110-110-110s-110 49.249-110 110c0 60.751 49.249 110 110 110s110-49.249 110-110zM270 656.74c0-60.751-49.249-110-110-110s-110 49.249-110 110c0 60.751 49.249 110 110 110s110-49.249 110-110zM268.38 447.958c-43.3 35.476-82.514 30.78-132.58 30.78-74.88 0-135.8-60.56-135.8-134.98v-218.42c0-32.32 26.38-58.6 58.82-58.6 140.052 0 123.18-2.534 123.18 6.040 0 154.772-18.332 268.274 86.38 375.18zM559.62 477.94c-87.448 7.294-163.458-0.084-229.020-54.2-109.714-87.88-88.6-206.206-88.6-350.96 0-38.298 31.16-70.040 70.040-70.040 422.164 0 438.966-13.618 464 41.82 8.21 18.748 5.96 12.79 5.96 192.14 0 142.452-123.346 241.24-222.38 241.24zM888.2 478.74c-50.34 0-89.338 4.648-132.58-30.78 103.93-106.112 86.38-211.87 86.38-375.18 0-8.628-14.006-6.040 121.080-6.040 33.6 0 60.92 27.22 60.92 60.68v216.34c0 74.42-60.92 134.98-135.8 134.98z" />
<glyph unicode="&#xe910;" glyph-name="business-and-finance" d="M30-32h964c16.568 0 30 13.432 30 30s-13.432 30-30 30h-30v870c0 16.568-13.432 30-30 30h-212c-16.568 0-30-13.432-30-30v-150h-180c-16.568 0-30-13.432-30-30v-150h-180c-16.568 0-30-13.432-30-30v-150h-182c-16.568 0-30-13.432-30-30v-330h-30c-16.568 0-30-13.432-30-30s13.432-30 30-30zM752 868h152v-840h-152zM542 688h150v-660h-150zM332 508h150v-480h-150zM120 328h152v-300h-152z" />
<glyph unicode="&#xe911;" glyph-name="flash" d="M827.248 565.184c-3.737 6.505-10.645 10.816-18.56 10.816h-279.467l46.853 357.989c0.075 0.672 0.117 1.45 0.117 2.239 0 11.85-9.606 21.456-21.456 21.456-7.498 0-14.098-3.846-17.934-9.673l-0.050-0.081-339.861-595.424c-1.984-3.179-3.16-7.039-3.16-11.173 0-11.781 9.55-21.332 21.331-21.333h275.291l-37.131-358.528c-0.040-0.49-0.062-1.060-0.062-1.635 0-11.853 9.609-21.461 21.461-21.461 7.59 0 14.259 3.94 18.075 9.886l0.051 0.086 334.245 595.36c1.903 3.129 3.030 6.912 3.030 10.958 0 3.868-1.029 7.495-2.829 10.623l0.055-0.104z" />
<glyph unicode="&#xe912;" glyph-name="beer" d="M805.488 554.227h-83.726v69.64c-0.025 13.236-6.647 25.589-17.658 32.935 38.061 40.467 36.114 104.127-4.352 142.191-15.753 14.818-35.866 24.163-57.351 26.651-9.848 83.466-85.495 143.143-168.961 133.293-39.222-4.628-75.108-24.324-100.075-54.923-58.566 27.38-128.238 2.098-155.618-56.466-5.345-11.431-8.804-23.652-10.248-36.189-51.168-6.746-87.179-53.693-80.433-104.861 2.527-19.176 10.944-37.092 24.086-51.282-9.603-7.49-15.235-18.972-15.277-31.149v-573.189c0-84.718 59.521-114.876 114.876-114.876h356.135c84.718 0 114.876 59.521 114.876 114.876v82.338h83.726c56.942 0 92.258 43.847 92.258 114.281v192.452c-0.198 70.632-35.514 114.281-92.258 114.281zM682.081 50.876c0-28.173-9.722-75.195-75.195-75.195h-355.54c-28.173 0-75.195 9.722-75.195 75.195v572.991h505.93v-572.991zM632.678 662.555l0.794 0.992h-416.648c-30.133 1.26-53.539 26.71-52.279 56.843s26.71 53.539 56.843 52.279h3.174c10.93-0.766 20.413 7.472 21.18 18.402 0.035 0.479 0.050 0.957 0.050 1.438 0 1.389 0 2.778 0 4.96 0.032 43.064 34.966 77.948 78.030 77.916 15.701-0.012 31.033-4.762 43.989-13.633 9.104-5.977 21.326-3.497 27.38 5.555 33.716 52.706 103.775 68.102 156.481 34.386 32.685-20.909 52.396-57.091 52.24-95.891 0.020-5.402 2.242-10.56 6.151-14.285 3.988-3.648 9.29-5.511 14.682-5.159h4.762c34.187 0.875 62.614-26.127 63.489-60.315s-26.127-62.614-60.315-63.489zM721.761 427.843h36.11c4.762 0 19.84 0 19.84-31.149v-103.964c0-31.149-14.483-31.149-19.84-31.149h-36.11v166.263zM858.065 249.28c0-33.927-9.127-74.6-52.577-74.6h-83.726v46.228h36.11c35.713 0 59.521 27.777 59.521 70.83v103.964c0 43.054-23.213 70.83-59.521 70.83h-36.11v48.014h83.726c43.45 0 52.577-39.681 52.577-74.6v-190.666zM247.973 513.951c-10.957 0-19.84-8.884-19.84-19.84v-348.794c0-10.957 8.884-19.84 19.84-19.84s19.84 8.884 19.84 19.84v348.794c0 10.957-8.884 19.84-19.84 19.84zM368.801 513.951c-10.957 0-19.84-8.884-19.84-19.84v-348.794c0-10.957 8.884-19.84 19.84-19.84s19.84 8.884 19.84 19.84v348.794c0 10.957-8.884 19.84-19.84 19.84zM489.43 513.951c-10.957 0-19.84-8.884-19.84-19.84v-348.794c0-10.957 8.884-19.84 19.84-19.84s19.84 8.884 19.84 19.84v348.794c0 10.957-8.884 19.84-19.84 19.84zM610.060 513.951c-10.957 0-19.84-8.884-19.84-19.84v-348.794c0-10.957 8.884-19.84 19.84-19.84s19.84 8.884 19.84 19.84v348.794c0 10.957-8.884 19.84-19.84 19.84z" />
<glyph unicode="&#xe913;" glyph-name="photo" d="M960 768h-768c-35.346 0-64-28.654-64-64v-640c0-35.346 28.654-64 64-64h768c35.346 0 64 28.654 64 64v640c0 35.346-28.654 64-64 64zM981.334 64c0-11.782-9.552-21.334-21.334-21.334h-768c-11.782 0-21.334 9.552-21.334 21.334v640c0 11.782 9.552 21.334 21.334 21.334h768c11.782 0 21.334-9.552 21.334-21.334v-640zM874.666 896h-810.666c-35.346 0-64-28.654-64-64v-682.666c0-35.346 28.654-64 64-64h21.334v42.666h-21.334c-11.782 0-21.334 9.552-21.334 21.334v682.666c0 11.782 9.552 21.334 21.334 21.334h810.666c11.782 0 21.334-9.552 21.334-21.334v-21.334h42.666v21.334c0 35.346-28.654 64-64 64zM484.416 463.082c-8.33 8.328-21.834 8.328-30.166 0l-320-320 30.166-30.166 304.918 304.918 326.25-326.25 30.166 30.166-341.334 341.332zM783.082 463.082c-8.33 8.328-21.834 8.328-30.166 0l-106.666-106.666 30.166-30.166 91.584 91.584 219.584-219.584 30.166 30.166-234.668 234.666zM618.666 682.666c-58.91 0-106.666-47.756-106.666-106.666s47.756-106.666 106.666-106.666c58.882 0.070 106.596 47.786 106.666 106.666 0.002 58.91-47.754 106.666-106.666 106.666zM618.666 512c-35.346 0-64 28.654-64 64s28.654 64 64 64c35.346 0 64-28.654 64-64s-28.654-64-64-64z" />
<glyph unicode="&#xe914;" glyph-name="inbox" d="M1020.832 750.616l-96.4 192.8c-5.082 10.164-15.47 16.584-26.832 16.584h-771.2c-11.364 0-21.75-6.42-26.834-16.584l-96.4-192.8c-2.082-4.166-3.166-8.76-3.166-13.416v-771.2c0-16.568 13.432-30 30-30h964c16.568 0 30 13.432 30 30v771.2c0 4.656-1.084 9.25-3.168 13.416zM144.942 900h734.118l66.4-132.8h-240.66c-16.568 0-30-13.432-30-30 0-89.768-73.032-162.798-162.8-162.798s-162.798 73.032-162.798 162.798c0 16.568-13.432 30-30 30h-240.662l66.402 132.8zM964-4h-904v325.6h231.21c14.7-108.712 108.11-192.798 220.786-192.798 112.678 0 206.088 84.086 220.79 192.798h231.214v-325.6zM352.016 321.6h319.966c-14.126-75.48-80.466-132.798-159.984-132.798-79.516 0-145.856 57.318-159.982 132.798zM964 381.6h-904v325.6h231.21c14.7-108.712 108.11-192.798 220.786-192.798 112.678 0 206.088 84.088 220.79 192.798h231.214v-325.6z" />
<glyph unicode="&#xe915;" glyph-name="quote" d="M0 448v-438.858h438.858v438.858h-292.571c0 161.321 131.251 292.571 292.571 292.571v146.287c-242.001 0-438.858-196.857-438.858-438.858zM1024 740.571v146.287c-242.001 0-438.858-196.857-438.858-438.858v-438.858h438.858v438.858h-292.571c0 161.321 131.251 292.571 292.571 292.571z" />
<glyph unicode="&#xe916;" glyph-name="right" d="M1017.75 463.084l-320 320c-8.334 8.334-21.834 8.334-30.166 0-8.334-8.334-8.334-21.834 0-30.166l283.584-283.584h-929.834c-11.792 0-21.334-9.542-21.334-21.334s9.542-21.334 21.334-21.334h929.834l-283.584-283.582c-8.334-8.334-8.334-21.834 0-30.166 4.166-4.166 9.626-6.25 15.084-6.25s10.916 2.084 15.084 6.25l320 320c8.332 8.332 8.332 21.832-0.002 30.166z" />
<glyph unicode="&#xe917;" glyph-name="left-arrow" d="M1002.668 469.349h-981.324c-11.776 0-21.334-9.558-21.334-21.334s9.558-21.334 21.334-21.334h981.324c11.776 0 21.334 9.558 21.334 21.334s-9.558 21.334-21.334 21.334zM377.734 121.746l-341.329 341.331c-8.32 8.32-21.846 8.32-30.166 0s-8.32-21.846 0-30.166l341.331-341.331c4.182-4.138 9.642-6.23 15.104-6.23s10.922 2.090 15.062 6.23c8.318 8.322 8.318 21.846-0.002 30.166zM377.734 804.408c-8.32 8.32-21.846 8.32-30.166 0l-341.329-341.331c-8.32-8.32-8.32-21.846 0-30.166 4.182-4.138 9.642-6.23 15.104-6.23s10.922 2.090 15.062 6.23l341.329 341.331c8.32 8.32 8.32 21.846 0 30.166z" />
<glyph unicode="&#xe918;" glyph-name="shooting" d="M936.49 490.666c-20.574 201.74-180.084 361.25-381.824 381.824v87.51h-85.334v-87.51c-201.738-20.574-361.248-180.084-381.822-381.824h-87.51v-85.334h87.51c20.574-201.74 180.084-361.25 381.824-381.824v-87.508h85.334v87.51c201.74 20.574 361.25 180.084 381.824 381.824h87.508v85.334h-87.51zM850.39 405.334c-19.674-154.442-141.28-276.048-295.722-295.722v82.388h-85.334v-82.39c-154.442 19.674-276.048 141.28-295.722 295.722h82.388v85.334h-82.39c19.674 154.442 141.28 276.048 295.722 295.722v-82.388h85.334v82.39c154.442-19.674 276.048-141.28 295.722-295.722h-82.388v-85.334h82.39zM512 661.334c-117.82 0-213.334-95.512-213.334-213.334s95.514-213.334 213.334-213.334 213.334 95.514 213.334 213.334c-0.142 117.762-95.572 213.192-213.334 213.334zM512 320c-70.692 0-128 57.308-128 128s57.308 128 128 128 128-57.308 128-128-57.308-128-128-128zM554.666 448c0-23.564-19.102-42.666-42.666-42.666s-42.666 19.102-42.666 42.666c0 23.564 19.102 42.666 42.666 42.666s42.666-19.102 42.666-42.666z" />
<glyph unicode="&#xe919;" glyph-name="innovation" d="M515.744 803.552c-0.768 0.007-1.676 0.012-2.584 0.012-157.089 0-285.014-124.86-289.948-280.75l-0.011-0.453c-0.078-2.5-0.123-5.441-0.123-8.391 0-62.385 19.933-120.114 53.778-167.165l-0.583 0.853c36.237-51.282 57.921-115.093 57.921-183.968 0-1.162-0.006-2.322-0.018-3.481l0.001 0.177v-77.136c0-0.002 0-0.003 0-0.005 0-4.274 1.918-8.101 4.94-10.666l0.020-0.017 50.912-43.064v-52.52c0.027-22.628 18.37-40.962 40.999-40.976h161.905c22.626 0.023 40.961 18.358 40.984 40.982v52.522l50.912 43.064c3.042 2.582 4.96 6.408 4.96 10.683 0 0.002 0 0.004 0 0.006v0 77.16c0.017 71.069 22.38 136.911 60.444 190.887l-0.7-1.047c32.125 45.908 51.334 102.911 51.334 164.401 0 158.238-127.209 286.764-284.941 288.893l-0.201 0.002zM614.816 49.952h-205.6l-40.432 34.192h286.464zM661.816 112.144h-299.632v34.256h299.632zM605.944-23.056c-0.009-7.167-5.817-12.975-12.983-12.984h-161.913c-7.167 0.009-12.975 5.817-12.984 12.983v45.009h187.872zM726.544 366.208c-37.854-53.646-61.553-119.695-64.434-191.106l-0.022-0.702h-300.16c-2.084 71.195-25.298 136.582-63.55 190.56l0.726-1.080c-30.022 41.724-48.014 93.854-48.014 150.186 0 2.649 0.040 5.29 0.119 7.92l-0.009-0.386c4.387 140.879 119.394 253.476 260.815 253.976h3.369c142.643-1.905 257.543-117.983 257.543-260.898 0-55.521-17.341-106.991-46.903-149.29l0.559 0.845zM665.952 514.544c-4.194 16.974-10.54 31.907-18.868 45.495l0.396-0.695 18.352 18.36c2.536 2.533 4.104 6.033 4.104 9.9s-1.569 7.367-4.104 9.9v0l-33.32 33.32c-2.533 2.536-6.033 4.104-9.9 4.104s-7.367-1.569-9.9-4.104v0l-18.248-18.248c-12.909 8.005-27.861 14.414-43.765 18.429l-1.099 0.235v25.752c0 7.732-6.268 14-14 14v0h-47.16c-7.732 0-14-6.268-14-14v0-25.752c-17.018-4.246-31.983-10.656-45.589-19.058l0.685 0.394-18.256 18.256c-2.533 2.536-6.033 4.104-9.9 4.104s-7.367-1.569-9.9-4.104v0l-33.32-33.32c-2.536-2.533-4.104-6.033-4.104-9.9s1.569-7.367 4.104-9.9v0l18.352-18.36c-7.932-12.893-14.278-27.827-18.24-43.704l-0.232-1.096h-26.040c-7.732 0-14-6.268-14-14v0-47.12c0-7.732 6.268-14 14-14v0h26.264c4.25-16.87 10.621-31.698 18.953-45.187l-0.393 0.683-18.664-18.664c-2.536-2.533-4.104-6.033-4.104-9.9s1.569-7.367 4.104-9.9v0l33.32-33.32c2.575-2.442 6.062-3.943 9.9-3.943s7.325 1.501 9.906 3.949l18.762 18.762c12.764-7.852 27.544-14.154 43.254-18.117l1.098-0.235v-26.568c0-7.732 6.268-14 14-14v0h47.128c7.732 0 14 6.268 14 14v0 26.568c16.822 4.194 31.616 10.496 45.087 18.748l-0.695-0.396 18.768-18.768c2.533-2.536 6.033-4.104 9.9-4.104s7.367 1.569 9.9 4.104v0l33.32 33.32c2.536 2.533 4.104 6.033 4.104 9.9s-1.569 7.367-4.104 9.9v0l-18.608 18.664c7.938 12.803 14.309 27.629 18.323 43.396l0.237 1.1h26.24c7.732 0 14 6.268 14 14v0 47.12c0 7.732-6.268 14-14 14v0zM678 467.424h-23.648c-0.002 0-0.005 0-0.007 0-6.914 0-12.656-5.015-13.789-11.605l-0.012-0.083c-3.587-20.696-11.577-39.059-22.989-54.777l0.261 0.377c-1.665-2.274-2.664-5.127-2.664-8.213 0-3.878 1.578-7.388 4.127-9.923l0.001-0.001 16.864-16.8-13.52-13.52-16.92 16.928c-2.534 2.535-6.035 4.104-9.903 4.104-3.053 0-5.878-0.977-8.179-2.636l0.041 0.028c-15.354-11.062-33.722-18.97-53.628-22.371l-0.772-0.109c-6.662-1.155-11.664-6.892-11.664-13.797 0-0.018 0-0.036 0-0.054v0.003-24h-19.2v24c0 0.007 0 0.015 0 0.023 0 6.914-5.015 12.656-11.605 13.789l-0.083 0.012c-20.678 3.51-39.046 11.418-54.788 22.745l0.388-0.265c-2.259 1.63-5.084 2.608-8.137 2.608-3.868 0-7.369-1.568-9.903-4.104l-16.92-16.928-13.52 13.52 16.888 16.824c2.538 2.533 4.108 6.035 4.108 9.903 0 3.074-0.991 5.916-2.671 8.225l0.028-0.040c-11.151 15.341-19.141 33.704-22.615 53.619l-0.113 0.781c-1.145 6.673-6.887 11.688-13.801 11.688-0.002 0-0.005 0-0.007 0h-23.648v19.12h23.496c0.001 0 0.002 0 0.003 0 6.944 0 12.707 5.055 13.81 11.686l0.011 0.082c3.474 20.807 11.411 39.298 22.809 55.131l-0.265-0.387c1.63 2.259 2.608 5.084 2.608 8.137 0 3.868-1.568 7.369-4.104 9.903l-16.512 16.512 13.52 13.52 16.448-16.448c2.534-2.536 6.036-4.105 9.904-4.105 3.073 0 5.915 0.99 8.224 2.669l-0.040-0.028c15.443 11.233 33.95 19.251 54.022 22.675l0.77 0.109c6.678 1.145 11.696 6.891 11.696 13.809 0 0.022 0 0.044 0 0.066v-0.003 23.2h19.2v-23.2c0 0 0 0 0 0 0-6.932 5.039-12.688 11.654-13.804l0.082-0.011c20.83-3.547 39.321-11.572 55.126-23.067l-0.374 0.259c2.268-1.654 5.111-2.646 8.186-2.646 3.869 0 7.37 1.571 9.902 4.11v0l16.448 16.448 13.52-13.52-16.512-16.512c-2.535-2.534-4.104-6.035-4.104-9.903 0-3.053 0.977-5.878 2.636-8.179l-0.028 0.041c11.133-15.446 19.070-33.937 22.438-53.978l0.106-0.766c1.114-6.713 6.877-11.768 13.821-11.768 0.001 0 0.002 0 0.003 0h23.496zM512 575.8c-54.345 0-98.4-44.055-98.4-98.4s44.055-98.4 98.4-98.4c54.345 0 98.4 44.055 98.4 98.4v0c-0.077 54.314-44.086 98.323-98.392 98.4h-0.008zM512 406.952c-38.881 0-70.4 31.519-70.4 70.4s31.519 70.4 70.4 70.4c38.881 0 70.4-31.519 70.4-70.4v0c-0.055-38.861-31.54-70.349-70.394-70.408h-0.006zM512 851.336c7.732 0 14 6.268 14 14v0 80.664c0 7.732-6.268 14-14 14s-14-6.268-14-14v0-80.664c0-7.732 6.268-14 14-14v0zM854.24 810.040l-57.040-57.040c-2.534-2.534-4.101-6.034-4.101-9.9 0-7.732 6.268-14.001 14.001-14.001 3.866 0 7.366 1.567 9.9 4.101v0l57.040 57.040c2.534 2.534 4.101 6.034 4.101 9.9 0 7.732-6.268 14.001-14.001 14.001-3.866 0-7.366-1.567-9.9-4.101v0zM1010 462h-80.664c-7.732 0-14-6.268-14-14s6.268-14 14-14v0h80.664c7.732 0 14 6.268 14 14s-6.268 14-14 14v0zM94.664 462h-80.664c-7.732 0-14-6.268-14-14s6.268-14 14-14v0h80.664c7.732 0 14 6.268 14 14s-6.268 14-14 14v0zM226.8 753l-57.040 57.040c-2.534 2.534-6.034 4.101-9.9 4.101-7.732 0-14.001-6.268-14.001-14.001 0-3.866 1.567-7.366 4.101-9.9l57.040-57.040c2.534-2.534 6.034-4.101 9.9-4.101 7.732 0 14.001 6.268 14.001 14.001 0 3.866-1.567 7.366-4.101 9.9v0z" />
<glyph unicode="&#xe91a;" glyph-name="box" d="M473.88 485.782l-460 193.684c-6.59 2.776-13.88-2.064-13.88-9.216v-517.798c0-13.084 7.966-24.852 20.116-29.71l446.17-178.468c6.568-2.628 13.714 2.21 13.714 9.284v523.008c0 4.024-2.412 7.654-6.12 9.216zM515.88 540.808l444.63 187.212c7.992 3.364 8.206 14.612 0.348 18.278l-435.326 203.152c-8.578 4.002-18.486 4.002-27.064 0l-435.326-203.152c-7.858-3.666-7.644-14.914 0.348-18.278l444.63-187.212c2.48-1.046 5.28-1.046 7.76 0zM544 476.566v-523.008c0-7.074 7.146-11.912 13.714-9.284l446.17 178.468c12.148 4.86 20.116 16.626 20.116 29.71v517.798c0 7.152-7.29 11.992-13.88 9.216l-460-193.684c-3.708-1.562-6.12-5.192-6.12-9.216z" />
<glyph unicode="&#xe91b;" glyph-name="telephone" d="M464.969 179.352c-7.805-7.797-7.805-20.461 0-28.273 7.82-7.805 20.477-7.805 28.273 0 7.82 7.812 7.82 20.477 0 28.273-7.797 7.82-20.453 7.82-28.273 0zM977.836 214.086l-151.844 129.117c-0.703 0.594-1.445 1.141-2.219 1.633-39.836 25.359-90.984 19.742-124.383-13.648l-82.789-82.781c-5.734-5.742-14.289-7.437-21.789-4.344-93.484 38.672-170.281 96.891-228.258 173.023-44.211 58.055-60.148 104.187-62.25 110.687-0.25 1.391-0.648 2.773-1.211 4.125-3.102 7.5-1.406 16.039 4.344 21.773l82.781 82.805c33.398 33.398 39.008 84.547 13.648 124.383-0.203 0.32-0.414 0.633-0.633 0.945l-109.656 152.383c-34.5 53.523-109.648 61.609-154.75 16.516l-16.578-16.578c-0.008-0.016-0.023-0.031-0.039-0.039l-59.187-59.187c-70.578-70.586-82.125-176.648-33.383-306.742 41.75-111.437 125.328-233.398 235.336-343.406 112.609-112.609 237.867-197.734 352.695-239.695 113.656-41.523 234.555-46.641 320.125 38.937l55.82 55.812c44.898 44.906 37.062 119.562-15.781 154.281zM801.211 311.781l151.711-129.008c0.695-0.594 1.437-1.141 2.211-1.633 32.406-20.633 37.312-65.945 10.195-93.055l-4.141-4.148-258.758 193.734 25.242 25.234c19.727 19.734 49.789 23.305 73.539 8.875zM260.164 892.211c0.203-0.32 0.414-0.641 0.633-0.945l109.609-152.328c14.891-23.836 11.445-54.266-8.469-74.18l-24.461-24.469-175.062 257.437 4.695 4.695c27.227 27.227 72.5 22.078 93.055-10.211zM631.39 2.625c-109.469 40-229.555 121.828-338.133 230.406-106.062 106.055-186.383 222.953-226.172 329.156-29.867 79.719-49.906 190.305 24.219 264.422l42.32 42.328 175.062-257.437-29.523-29.539c-16.797-16.766-22.078-41.578-13.695-63.672 6.312-25.906 35.359-79.68 64.664-119.305 43.125-58.312 121.398-138.93 249.391-191.883 22.492-9.305 48.141-4.195 65.359 13.016l28.977 28.984 258.758-193.734-23.102-23.094c-79.461-79.469-195.102-59.984-278.125-29.648zM427.437 227.102c-21.125 18.523-57.664 50.383-76.906 70.18-47.187 48.492-96.695 107.273-126.133 149.742-6.289 9.078-18.75 11.344-27.828 5.047-9.078-6.289-11.336-18.75-5.047-27.828 37.125-53.562 91.672-115.109 130.336-154.844 20.312-20.906 57.164-53.047 79.203-72.367 8.289-7.266 20.922-6.469 28.227 1.852 7.281 8.297 6.453 20.937-1.852 28.219z" />
<glyph unicode="&#xe91c;" glyph-name="location-pin" d="M512 960c-191.626 0-347.527-155.899-347.527-347.525 0-77.005 45.336-194.115 142.676-368.549 66.423-119.022 132.54-219.556 135.329-223.791l47.788-72.435c4.818-7.305 12.982-11.701 21.735-11.701s16.917 4.395 21.735 11.701l47.786 72.43c2.762 4.187 68.398 103.851 135.331 223.795 97.34 174.426 142.676 291.536 142.676 368.549 0 191.626-155.901 347.525-347.527 347.525zM671.378 269.304c-66.002-118.266-130.6-216.366-133.323-220.489l-26.055-39.493-26.047 39.483c-2.737 4.156-67.831 103.135-133.331 220.499-90.291 161.805-136.072 277.265-136.072 343.171 0 162.911 132.537 295.448 295.45 295.448s295.45-132.537 295.45-295.448c0-65.915-45.782-181.371-136.072-343.171zM512 807.33c-106.247 0-192.684-86.439-192.684-192.684s86.437-192.684 192.684-192.684 192.684 86.439 192.684 192.684-86.437 192.684-192.684 192.684zM512 474.038c-77.532 0-140.607 63.075-140.607 140.607s63.075 140.607 140.607 140.607c77.534 0 140.607-63.075 140.607-140.607s-63.073-140.607-140.607-140.607z" />
<glyph unicode="&#xe91d;" glyph-name="envelope-1" d="M938.666 832h-853.332c-47.064 0-85.334-38.27-85.334-85.334v-597.334c0-47.062 38.27-85.332 85.334-85.332h853.334c47.062 0 85.332 38.27 85.332 85.334v597.332c0 47.064-38.27 85.334-85.334 85.334zM85.334 789.334h853.334c3.144 0 5.914-1.146 8.864-1.794-73.878-67.614-318.846-291.718-404.572-368.956-6.708-6.042-17.52-13.25-30.958-13.25s-24.25 7.208-30.98 13.27c-85.718 77.226-330.7 301.342-404.566 368.932 2.956 0.648 5.732 1.798 8.878 1.798zM42.666 149.334v597.332c0 4.18 1.26 7.972 2.388 11.792 56.544-51.752 227.472-208.12 338.304-308.906-110.472-94.894-281.444-256.99-338.438-311.338-1.006 3.628-2.254 7.176-2.254 11.12zM938.666 106.666h-853.332c-3.408 0-6.438 1.188-9.62 1.948 58.894 56.144 230.954 219.172 339.484 312.018 14.148-12.834 27.072-24.536 37.26-33.716 17.584-15.876 38.166-24.25 59.542-24.25s41.958 8.376 59.52 24.23c10.192 9.184 23.126 20.896 37.282 33.736 108.536-92.836 280.572-255.852 339.484-312.018-3.182-0.76-6.208-1.948-9.62-1.948zM981.334 149.334c0-3.942-1.248-7.492-2.252-11.12-57.016 54.376-227.968 216.454-338.438 311.336 110.836 100.786 281.738 257.14 338.302 308.912 1.128-3.82 2.388-7.614 2.388-11.794v-597.334z" />
</font>
</defs>
</svg>
